Interview Preparation

Sample cue file
REM GENRE Classical
REM DATE 1986
REM DISCID D20AFB11
REM COMMENT "ExactAudioCopy v1.0b3"
CATALOG 0028941446022
PERFORMER "Cristina Ortiz, Pascal Roge, London Sinfonietta, Philharmonia Orchestra, Char..."
TITLE "Carnaval Des Animaux, Danse Macabre, etc."
FILE “01 The Carnival of the Animals – Introduction and Royal March of the Lion.wav” WAVE
TRACK 01 AUDIO
TITLE “The Carnival of the Animals – Introduction and Royal March of the Lion”
PERFORMER “Cristina Ortiz, Pascal Roge, London Sinfonietta, Philharmonia Orchestra, Char…”
ISRC GBF078040301
PREGAP 00:00:32
INDEX 01 00:00:00 FILE “02 The Carnival of the Animals – Hens and Cockerels.wav” WAVE
TRACK 02 AUDIO
TITLE “The Carnival of the Animals – Hens and Cockerels”
PERFORMER “Cristina Ortiz, Pascal Roge, London Sinfonietta, Philharmonia Orchestra, Char…”
ISRC GBF078040302
INDEX 01 00:00:00 FILE “03 The Carnival of the Animals – Wild Asses.wav” WAVE
TRACK 03 AUDIO
TITLE “The Carnival of the Animals – Wild Asses”
PERFORMER “Cristina Ortiz, Pascal Roge, London Sinfonietta, Philharmonia Orchestra, Char…”
ISRC GBF078040303
INDEX 01 00:00:00 FILE “04 The Carnival of the Animals – Tortoises.wav” WAVE
TRACK 04 AUDIO
TITLE “The Carnival of the Animals – Tortoises”
PERFORMER “Cristina Ortiz, Pascal Roge, London Sinfonietta, Philharmonia Orchestra, Char…”
ISRC GBF078040304
INDEX 01 00:00:00 FILE “05 The Carnival of the Animals – The Elephant.wav” WAVE
TRACK 05 AUDIO
TITLE “The Carnival of the Animals – The Elephant”
PERFORMER “Cristina Ortiz, Pascal Roge, London Sinfonietta, Philharmonia Orchestra, Char…”
ISRC GBF078040305
INDEX 01 00:00:00 FILE “06 The Carnival of the Animals – Kangaroos.wav” WAVE
TRACK 06 AUDIO
TITLE “The Carnival of the Animals – Kangaroos”
PERFORMER “Cristina Ortiz, Pascal Roge, London Sinfonietta, Philharmonia Orchestra, Char…”
ISRC GBF078040306
INDEX 01 00:00:00 FILE “07 The Carnival of the Animals – Aquarium.wav” WAVE
TRACK 07 AUDIO
TITLE “The Carnival of the Animals – Aquarium”
PERFORMER “Cristina Ortiz, Pascal Roge, London Sinfonietta, Philharmonia Orchestra, Char…”
ISRC GBF078040307
INDEX 01 00:00:00 FILE “08 The Carnival of the Animals – Persons With Long Ears.wav” WAVE
TRACK 08 AUDIO
TITLE “The Carnival of the Animals – Persons With Long Ears”
PERFORMER “Cristina Ortiz, Pascal Roge, London Sinfonietta, Philharmonia Orchestra, Char…”
ISRC GBF078040308
INDEX 01 00:00:00 FILE “09 The Carnival of the Animals – The Cuckoo In the Depths of the Woods.wav” WAVE
TRACK 09 AUDIO
TITLE “The Carnival of the Animals – The Cuckoo In the Depths of the Woods”
PERFORMER “Cristina Ortiz, Pascal Roge, London Sinfonietta, Philharmonia Orchestra, Char…”
ISRC GBF078040309
INDEX 01 00:00:00 FILE “10 The Carnival of the Animals – Aviary.wav” WAVE
TRACK 10 AUDIO
TITLE “The Carnival of the Animals – Aviary”
PERFORMER “Cristina Ortiz, Pascal Roge, London Sinfonietta, Philharmonia Orchestra, Char…”
ISRC GBF078040310
INDEX 01 00:00:00 FILE “11 The Carnival of the Animals – Pianists.wav” WAVE
TRACK 11 AUDIO
TITLE “The Carnival of the Animals – Pianists”
PERFORMER “Cristina Ortiz, Pascal Roge, London Sinfonietta, Philharmonia Orchestra, Char…”
ISRC GBF078040311
INDEX 01 00:00:00 FILE “12 The Carnival of the Animals – Fossils.wav” WAVE
TRACK 12 AUDIO
TITLE “The Carnival of the Animals – Fossils”
PERFORMER “Cristina Ortiz, Pascal Roge, London Sinfonietta, Philharmonia Orchestra, Char…”
ISRC GBF078040312
INDEX 01 00:00:00 FILE “13 The Carnival of the Animals – The Swam.wav” WAVE
TRACK 13 AUDIO
TITLE “The Carnival of the Animals – The Swam”
PERFORMER “Cristina Ortiz, Pascal Roge, London Sinfonietta, Philharmonia Orchestra, Char…”
ISRC GBF078040313
INDEX 01 00:00:00 FILE “14 The Carnival of the Animals – Finale.wav” WAVE
TRACK 14 AUDIO
TITLE “The Carnival of the Animals – Finale”
PERFORMER “Cristina Ortiz, Pascal Roge, London Sinfonietta, Philharmonia Orchestra, Char…”
ISRC GBF078040314
INDEX 01 00:00:00 TRACK 15 AUDIO
TITLE “Phaeton, Op.39″
PERFORMER “Cristina Ortiz, Pascal Roge, London Sinfonietta, Philharmonia Orchestra, Char…”
ISRC GBF078010130
INDEX 00 01:53:52
FILE “15 Phaeton, Op.39.wav” WAVE
INDEX 01 00:00:00 TRACK 16 AUDIO
TITLE “Le Rouet d’Omphale, Op. 31″
PERFORMER “Cristina Ortiz, Pascal Roge, London Sinfonietta, Philharmonia Orchestra, Char…”
ISRC GBF078010140
INDEX 00 08:59:50
FILE “16 Le Rouet d’Omphale, Op. 31.wav” WAVE
INDEX 01 00:00:00 TRACK 17 AUDIO
TITLE “Danse Macabre, Op. 40″
PERFORMER “Cristina Ortiz, Pascal Roge, London Sinfonietta, Philharmonia Orchestra, Char…”
ISRC GBF078010150
INDEX 00 07:41:43
FILE “17 Danse Macabre, Op. 40.wav” WAVE
INDEX 01 00:00:00